Welcome to IzzyForum

Йо! Ты ещё не зарегистрировался? Так пора бы это сделать, или не сможешь написать о своей проблеме с игрушечкой для дебилов, не обсудишь как горел твой мехмод и не увидишь уведомлений о том, как тебя кто-то хуесосит в твоей же теме. Регистрируйся и добро пожаловать.

тотещепиздабол

Как ускорить в mpc-hc, kmp без эффектов изменения тона голоса?

2 сообщения в этой теме

На YouTube при ускорении видео в 2 раза нет эффекта повышения тона голоса, а также прерывания звука\изображения - все очень плавно и граммотно. Как настроить чтобы в mpc-hc, kmp было ускорение такое же как на ютубе, т.е без эффектов изменения тона голоса?

Поделиться сообщением


Ссылка на сообщение
Поделиться на других сайтах

vlc и windows media могут, но они еле работают при воспроизведении видео с жд нагруженным под 100%

а еще как пофиксеть прерывание изображения(видео в 60fps) в vlc (тоже самое и в windows media)при ускорении

Скрытый текст

General
Complete name               : 
Format                      : MPEG-4
Format profile              : Base Media
Codec ID                    : isom (isom/iso2/avc1/mp41)
File size                   : 11.1 GiB
Duration                    : 5 h 7 min
Overall bit rate            : 5 150 kb/s
Writing application         : Lavf57.72.101

Video
ID                          : 1
Format                      : AVC
Format/Info                 : Advanced Video Codec
Format profile              : High@L3.2
Format settings, CABAC      : Yes
Format settings, ReFrames   : 4 frames
Codec ID                    : avc1
Codec ID/Info               : Advanced Video Coding
Duration                    : 5 h 7 min
Bit rate                    : 5 002 kb/s
Width                       : 1 280 pixels
Height                      : 720 pixels
Display aspect ratio        : 16:9
Frame rate mode             : Variable
Frame rate                  : 58.953 FPS
Minimum frame rate          : 0.750 FPS
Maximum frame rate          : 90 000.000 FPS
Color space                 : YUV
Chroma subsampling          : 4:2:0
Bit depth                   : 8 bits
Scan type                   : Progressive
Bits/(Pixel*Frame)          : 0.092
Stream size                 : 10.7 GiB (97%)

Audio
ID                          : 2
Format                      : AAC
Format/Info                 : Advanced Audio Codec
Format profile              : LC
Codec ID                    : 40
Duration                    : 5 h 7 min
Bit rate mode               : Constant
Bit rate                    : 132 kb/s
Channel(s)                  : 2 channels
Channel positions           : Front: L R
Sampling rate               : 48.0 kHz
Frame rate                  : 46.875 FPS (1024 spf)
Compression mode            : Lossy
Stream size                 : 288 MiB (3%)
Default                     : Yes
Alternate group             : 1

 

 

Изменено пользователем тотещепиздабол

Поделиться сообщением


Ссылка на сообщение
Поделиться на других сайтах

Создайте аккаунт или войдите для комментирования

Вы должны быть пользователем, чтобы оставить комментарий

Создать аккаунт

Зарегистрируйтесь для получения аккаунта. Это просто!


Зарегистрировать аккаунт

Войти

Уже зарегистрированы? Войдите здесь.


Войти сейчас